<?xml version="1.0" encoding="UTF-8" standalone="no"?>
<!DOCTYPE svg PUBLIC "-//W3C//DTD SVG 1.1//EN" "http://www.w3.org/Graphics/SVG/1.1/DTD/svg11.dtd">
<svg xmlns="http://www.w3.org/2000/svg" xmlns:xlink="http://www.w3.org/1999/xlink" version="1.1">
<metadata/>
<defs>
<font id="proxima_novalight" horiz-adv-x="1169">
<font-face units-per-em="2048" ascent="1618" descent="-430"/>
<missing-glyph horiz-adv-x="530"/>
<glyph unicode="ﬁ" horiz-adv-x="978" d="M307 0h-106v895h-164v94h164v90q0 145 72 226t196 81q82 0 133 -30l-33 -84q-39 22 -90 22q-84 0 -128 -55.5t-44 -159.5v-90h201v-94h-201v-895zM762 1145q-33 0 -57.5 24.5t-24.5 57.5t24.5 56.5t57.5 23.5q34 0 58 -23t24 -57t-24 -58t-58 -24zM815 0h-106v989h106 v-989z"/>
<glyph unicode="ﬂ" horiz-adv-x="978" d="M307 0h-106v895h-164v94h164v90q0 145 72 226t196 81q82 0 133 -30l-33 -84q-39 22 -90 22q-84 0 -128 -55.5t-44 -159.5v-90h201v-94h-201v-895zM815 0h-106v1366h106v-1366z"/>
<glyph unicode="ﬃ" horiz-adv-x="1521" d="M850 0h-107v895h-163v94h163v90q0 145 72.5 226t196.5 81q82 0 133 -30l-33 -84q-39 22 -90 22q-84 0 -128 -55.5t-44 -159.5v-90h201v-94h-201v-895zM1305 1145q-33 0 -57.5 24.5t-24.5 57.5t24.5 56.5t57.5 23.5q34 0 57.5 -23t23.5 -57t-23.5 -58t-57.5 -24zM1358 0 h-107v989h107v-989zM307 0h-106v895h-164v94h164v90q0 145 72 226t196 81q82 0 133 -30l-33 -84q-39 22 -90 22q-84 0 -128 -55.5t-44 -159.5v-90h201v-94h-201v-895z"/>
<glyph unicode="ﬄ" horiz-adv-x="1521" d="M850 0h-107v895h-163v94h163v90q0 145 72.5 226t196.5 81q82 0 133 -30l-33 -84q-39 22 -90 22q-84 0 -128 -55.5t-44 -159.5v-90h201v-94h-201v-895zM1358 0h-107v1366h107v-1366zM307 0h-106v895h-164v94h164v90q0 145 72 226t196 81q82 0 133 -30l-33 -84 q-39 22 -90 22q-84 0 -128 -55.5t-44 -159.5v-90h201v-94h-201v-895z"/>
<glyph horiz-adv-x="0"/>
<glyph horiz-adv-x="682"/>
<glyph horiz-adv-x="0"/>
<glyph horiz-adv-x="0"/>
<glyph unicode="" horiz-adv-x="0"/>
<glyph unicode=" " horiz-adv-x="530"/>
<glyph unicode="	" horiz-adv-x="530"/>
<glyph unicode=" " horiz-adv-x="530"/>
<glyph unicode="!" horiz-adv-x="448" d="M266 356h-84l-26 1010h137zM223 -18q-37 0 -62.5 26.5t-25.5 63.5q0 36 26 62t62 26q37 0 64.5 -26.5t27.5 -61.5q0 -37 -27.5 -63.5t-64.5 -26.5z"/>
<glyph unicode="&quot;" horiz-adv-x="649" d="M223 874h-61q-43 412 -43 439q0 31 21 52t53 21q31 0 52 -21t21 -52zM487 874h-61q-43 412 -43 439q0 31 21.5 52t52.5 21t52 -21t21 -52z"/>
<glyph unicode="#" horiz-adv-x="1185" d="M582 0h-99l131 381h-241l-129 -381h-97l127 381h-225l27 84h229l146 436h-232l25 84h235l125 381h96l-125 -381h240l125 381h98l-129 -381h228l-23 -84h-231l-148 -436h236l-25 -84h-237zM639 465l147 436h-239l-146 -436h238z"/>
<glyph unicode="$" horiz-adv-x="1196" d="M559 -205v182q-150 7 -267.5 64.5t-193.5 151.5l76 88q155 -181 385 -197v573q-55 16 -89.5 26.5t-84 29.5t-80 37t-65 46t-54 59.5t-32.5 74.5t-13 94q0 156 119.5 255t298.5 107v187h94v-187q246 -20 400 -190l-78 -86q-122 146 -322 168v-516q53 -15 91 -27t86 -32 t81.5 -41t68 -51.5t55.5 -65t34.5 -81.5t13.5 -102q0 -53 -13 -103t-45 -99.5t-80 -87t-123 -63.5t-169 -32v-182h-94zM961 354q0 60 -23.5 105.5t-70 77.5t-95 52.5t-119.5 41.5v-547q85 6 148 33.5t96 68t48.5 82.5t15.5 86zM264 1030q0 -42 16 -76t41 -58t66 -45 t79.5 -34.5t92.5 -28.5v492q-128 -6 -211.5 -76t-83.5 -174z"/>
<glyph unicode="%" horiz-adv-x="1474" d="M389 717q-140 0 -229.5 94t-89.5 238q0 146 89.5 241.5t229.5 95.5q142 0 232 -95.5t90 -241.5q0 -144 -90.5 -238t-231.5 -94zM354 0h-92l873 1366h94zM1085 -25q-140 0 -230.5 95.5t-90.5 238.5q0 146 90.5 242t230.5 96t231 -96t91 -242q0 -143 -91 -238.5t-231 -95.5 zM389 795q99 0 163 74.5t64 179.5q0 109 -63.5 183.5t-163.5 74.5q-98 0 -161.5 -74.5t-63.5 -183.5q0 -105 63.5 -179.5t161.5 -74.5zM1085 55q99 0 162.5 73.5t63.5 180.5q0 108 -63.5 183t-162.5 75t-163 -75t-64 -183q0 -106 64 -180t163 -74z"/>
<glyph unicode="&amp;" horiz-adv-x="1308" d="M1233 0h-160q-78 68 -174 164q-167 -189 -401 -189q-177 0 -294.5 98t-117.5 275q0 78 24 142.5t70 114t94.5 84.5t116.5 73q-112 175 -112 313q0 134 94.5 222.5t230.5 88.5q129 0 208 -68t79 -190q0 -72 -24.5 -128.5t-87 -107t-99.5 -73.5t-131 -73q-8 -5 -12 -7 q58 -82 176 -215q109 -124 182 -200q100 149 156 331l98 -41q-95 -240 -180 -364q99 -102 264 -250zM506 70q178 0 323 166q-145 148 -204 219q-136 161 -183 229q-54 -31 -93 -61.5t-73.5 -70.5t-52.5 -89.5t-18 -108.5q0 -133 87.5 -208.5t213.5 -75.5zM393 1073 q0 -110 94 -260q61 32 92.5 50t77.5 50t69 59.5t40.5 67t17.5 84.5q0 82 -50 127t-128 45q-89 0 -151 -63t-62 -160z"/>
<glyph unicode="'" horiz-adv-x="382" d="M223 874h-61q-43 412 -43 439q0 31 21 52t53 21q31 0 52 -21t21 -52z"/>
<glyph unicode="(" horiz-adv-x="464" d="M430 -360l-63 -48q-273 413 -273 906q0 492 273 905l63 -45q-109 -223 -163 -417.5t-54 -442.5q0 -247 54 -442t163 -416z"/>
<glyph unicode=")" horiz-adv-x="464" d="M98 -408l-63 48q109 218 163 414t54 444q0 171 -28.5 324.5t-72.5 272t-116 263.5l63 45q275 -416 275 -905q0 -490 -275 -906z"/>
<glyph unicode="*" horiz-adv-x="686" d="M381 817h-76l10 240l-200 -131l-39 67l213 109l-213 108l39 68l200 -131l-10 239h76l-12 -239l202 131l37 -68l-211 -108l211 -109l-37 -67l-202 131z"/>
<glyph unicode="+" horiz-adv-x="1015" d="M956 647h-401v-444h-92v444h-404v86h404v432h92v-432h401v-86z"/>
<glyph unicode="," horiz-adv-x="448" d="M326 29q0 -83 -42.5 -159.5t-105.5 -121.5l-59 51q49 33 82.5 87t36.5 102q-15 -2 -21 -2q-37 0 -60.5 24.5t-23.5 61.5q0 36 26 62t62 26q44 0 74.5 -35.5t30.5 -95.5z"/>
<glyph unicode="-" horiz-adv-x="614" d="M553 446h-492v99h492v-99z"/>
<glyph unicode="." horiz-adv-x="448" d="M223 -20q-37 0 -63.5 27.5t-26.5 64.5q0 35 26.5 61.5t63.5 26.5t64.5 -26.5t27.5 -61.5q0 -37 -27.5 -64.5t-64.5 -27.5z"/>
<glyph unicode="/" horiz-adv-x="577" d="M92 -41h-92l485 1448h93z"/>
<glyph unicode="0" horiz-adv-x="1245" d="M625 -25q-107 0 -194 42.5t-144 112.5t-96 163.5t-55.5 190.5t-16.5 198q0 102 17 199t55.5 189.5t95.5 162t144 111.5t194 42q106 0 192 -42t143 -111.5t95.5 -162t55.5 -189.5t17 -199q0 -83 -12 -165t-37 -162t-66 -148t-95 -120.5t-129.5 -82t-163.5 -29.5zM625 82 q82 0 148.5 36t108.5 94t70.5 137.5t40 162t11.5 170.5q0 89 -11.5 171t-39.5 161t-70 137t-108.5 93.5t-149.5 35.5q-84 0 -150.5 -35.5t-109.5 -93.5t-71 -137t-40 -161t-12 -171q0 -88 11.5 -170.5t40 -162t71.5 -137.5t109.5 -94t150.5 -36z"/>
<glyph unicode="1" horiz-adv-x="630" d="M461 0h-117v1206l-219 -233l-72 76l301 317h107v-1366z"/>
<glyph unicode="2" horiz-adv-x="1191" d="M1016 0h-901v96q115 93 190.5 155.5t165.5 141t146 135t113.5 123.5t89 122t51.5 113.5t20 114.5q0 71 -27 126.5t-72.5 87.5t-99.5 48.5t-112 16.5q-123 0 -220 -48.5t-155 -129.5l-80 74q72 99 191.5 154.5t263.5 55.5q62 0 122 -14t116 -44.5t98.5 -74t68 -109 t25.5 -143.5q0 -63 -20 -128.5t-51.5 -124t-86 -126.5t-108 -124t-134.5 -128.5t-148 -128.5t-165 -135h719v-106z"/>
<glyph unicode="3" horiz-adv-x="1114" d="M530 -25q-159 0 -280 64.5t-184 163.5l79 69q60 -86 159 -138t224 -52q159 0 251.5 78t92.5 213q0 140 -100.5 208t-265.5 68q-107 0 -127 -2v111q20 -2 127 -2q94 0 170 26t126 86.5t50 147.5q0 123 -95 193.5t-233 70.5q-114 0 -201 -43t-165 -131l-74 74 q77 94 190.5 150t255.5 56q121 0 220 -41t160 -124t61 -195q0 -60 -19.5 -111.5t-50 -86t-70.5 -60.5t-77.5 -40.5t-75.5 -20.5q48 -5 99.5 -27.5t101 -62t81 -105t31.5 -145.5q0 -173 -123.5 -282.5t-337.5 -109.5z"/>
<glyph unicode="4" horiz-adv-x="1107" d="M836 0h-117v373h-647v104l606 889h158v-887h200v-106h-200v-373zM719 479v770l-526 -770h526z"/>
<glyph unicode="5" horiz-adv-x="1191" d="M612 -25q-304 0 -460 224l77 77q137 -194 383 -194q147 0 244.5 95t97.5 235q0 153 -95 243t-245 90q-186 0 -331 -133l-88 37v717h788v-106h-672v-535q56 55 141.5 91t184.5 36q87 0 165 -28.5t139 -82t96.5 -137.5t35.5 -188q0 -132 -63 -234t-167 -154.5t-231 -52.5z "/>
<glyph unicode="6" horiz-adv-x="1196" d="M621 -25q-133 0 -233 58t-157 159t-84.5 223.5t-27.5 266.5q0 108 17.5 207.5t58 191t99.5 158.5t148 107t199 40q126 0 214 -45.5t155 -128.5l-70 -86q-55 75 -124.5 114.5t-174.5 39.5q-106 0 -186.5 -52t-126.5 -140t-68 -190.5t-22 -217.5q0 -44 2 -64 q51 83 162 155.5t237 72.5q94 0 173 -27t139 -79.5t94 -136t34 -189.5q0 -84 -31 -162.5t-88 -139.5t-145 -98t-194 -37zM616 82q84 0 152 30.5t108.5 79t62.5 105t22 113.5q0 161 -94.5 245t-248.5 84q-111 0 -212 -64.5t-160 -168.5q5 -59 19.5 -115.5t44 -113.5t70 -99.5 t101.5 -69t135 -26.5z"/>
<glyph unicode="7" horiz-adv-x="1028" d="M379 0h-129l573 1260h-755v106h895v-82z"/>
<glyph unicode="8" d="M586 -25q-201 0 -333 101t-132 266q0 134 98.5 229t241.5 134q-64 17 -118.5 44.5t-100.5 67.5t-72.5 95.5t-26.5 121.5q0 87 38.5 156.5t102 111t141 63t161.5 21.5q65 0 127.5 -13t120 -41.5t100.5 -69t68.5 -99.5t25.5 -129q0 -66 -26 -121.5t-72 -95.5t-100.5 -67.5 t-118.5 -44.5q142 -38 240 -133.5t98 -229.5q0 -163 -131.5 -265t-331.5 -102zM586 754q33 6 66.5 15.5t82.5 31t85 49.5t62.5 73t26.5 99q0 119 -92 188.5t-231 69.5q-140 0 -232 -69.5t-92 -188.5q0 -54 26.5 -99t63 -72.5t86 -49.5t82.5 -31.5t66 -15.5zM586 82 q90 0 168.5 31.5t128 94t49.5 142.5q0 59 -28.5 110t-69.5 83.5t-91 57t-89 35.5t-68 15q-29 -3 -68.5 -14.5t-89.5 -36t-91 -57t-69 -83.5t-28 -110q0 -120 102 -194t244 -74z"/>
<glyph unicode="9" horiz-adv-x="1196" d="M555 -23q-230 0 -367 175l68 84q55 -73 124.5 -112.5t174.5 -39.5q108 0 189 52.5t126 141t66.5 190.5t21.5 216v64q-53 -84 -164 -157t-237 -73q-93 0 -172.5 27.5t-139.5 80t-94 136.5t-34 190q0 84 31 162.5t88 139.5t145 98t194 37q133 0 233 -58t157 -159 t84.5 -223.5t27.5 -266.5q0 -108 -17.5 -208t-58 -191.5t-99.5 -158.5t-148 -107t-199 -40zM578 625q111 0 212 64.5t160 168.5q-5 59 -19.5 115.5t-44 113.5t-70 99.5t-101.5 69t-135 26.5q-84 0 -151.5 -30.5t-108.5 -79t-62.5 -105t-21.5 -113.5q0 -161 94.5 -245 t247.5 -84z"/>
<glyph unicode=":" horiz-adv-x="448" d="M223 825q-37 0 -63.5 26.5t-26.5 61.5q0 37 26.5 64t63.5 27t64.5 -27t27.5 -64q0 -35 -27.5 -61.5t-64.5 -26.5zM223 -20q-37 0 -63.5 27.5t-26.5 64.5q0 35 26.5 61.5t63.5 26.5t64.5 -26.5t27.5 -61.5q0 -37 -27.5 -64.5t-64.5 -27.5z"/>
<glyph unicode=";" horiz-adv-x="448" d="M223 825q-37 0 -63.5 26.5t-26.5 61.5q0 37 26.5 64t63.5 27t64.5 -27t27.5 -64q0 -35 -27.5 -61.5t-64.5 -26.5zM326 29q0 -81 -42.5 -157.5t-105.5 -121.5l-59 51q49 33 82.5 87t36.5 102q-15 -2 -21 -2q-37 0 -60.5 24.5t-23.5 61.5q0 36 26 62t62 26q44 0 74.5 -35.5 t30.5 -97.5z"/>
<glyph unicode="&lt;" horiz-adv-x="1015" d="M956 184l-897 463v76l897 465v-101l-790 -403l790 -399v-101z"/>
<glyph unicode="=" horiz-adv-x="1015" d="M956 842h-897v86h897v-86zM956 442h-897v84h897v-84z"/>
<glyph unicode="&gt;" horiz-adv-x="1015" d="M956 647l-897 -463v101l791 399l-791 403v101l897 -465v-76z"/>
<glyph unicode="?" horiz-adv-x="950" d="M438 360q-84 70 -84 162q0 40 12.5 76t29 61t48.5 54t53.5 45t61.5 43q30 21 42.5 29.5t38.5 29t37.5 33t29.5 33.5t26 39.5t14.5 43t6.5 50.5q0 94 -72.5 157.5t-202.5 63.5q-125 0 -209 -47t-151 -137l-74 75q157 215 440 215q179 0 285.5 -90.5t106.5 -224.5 q0 -50 -15 -94.5t-34.5 -75t-56.5 -64.5t-62 -53t-70 -49q-46 -31 -69.5 -48.5t-54 -46.5t-43.5 -59t-13 -65q0 -24 16.5 -53.5t44.5 -50.5zM457 -20q-37 0 -63.5 27.5t-26.5 64.5q0 35 26.5 61.5t63.5 26.5t63.5 -26.5t26.5 -61.5q0 -37 -26.5 -64.5t-63.5 -27.5z"/>
<glyph unicode="@" horiz-adv-x="1603" d="M721 -143q-183 0 -332 85t-233 232t-84 326q0 163 67.5 313t179 257.5t260.5 172t306 64.5q188 0 336.5 -88.5t228.5 -238.5t80 -333q0 -220 -98.5 -346.5t-233.5 -126.5q-81 0 -129.5 51.5t-50.5 122.5l-2 12q-58 -80 -148 -133t-188 -53q-141 0 -227 89.5t-86 238.5 q0 107 42 204.5t110.5 166t157 109t179.5 40.5q97 0 165.5 -47.5t100.5 -120.5l27 133h100l-121 -577q-4 -24 -4 -39q0 -52 30 -82.5t73 -30.5q26 0 55.5 11t62.5 40t59 71t43 112t17 157q0 168 -73 302.5t-207 212t-305 77.5q-146 0 -283.5 -62t-237.5 -163t-160.5 -236.5 t-60.5 -277.5q0 -163 76 -296t212 -209.5t304 -76.5q203 0 383 117l35 -51q-200 -129 -426 -129zM700 258q105 0 191 60.5t145 146.5l66 303q-23 66 -82.5 118t-151.5 52q-106 0 -198 -62t-144.5 -161t-52.5 -207q0 -110 60.5 -180t166.5 -70z"/>
<glyph unicode="A" horiz-adv-x="1325" d="M1294 0h-135l-135 336h-723l-135 -336h-135l559 1366h145zM985 442l-323 799l-322 -799h645z"/>
<glyph unicode="B" horiz-adv-x="1257" d="M743 0h-573v1366h561q172 0 274.5 -93.5t102.5 -254.5q0 -123 -71 -208t-169 -105q109 -17 188 -116t79 -220q0 -171 -105 -270t-287 -99zM717 754q127 0 197.5 71t70.5 181q0 109 -70.5 181.5t-197.5 72.5h-430v-506h430zM725 106q134 0 210.5 73t76.5 198 q0 112 -76 191t-211 79h-438v-541h438z"/>
<glyph unicode="C" horiz-adv-x="1376" d="M811 -25q-144 0 -271 52t-220 143.5t-147 224.5t-54 287t54 287t147 224.5t220 143.5t271 52q303 0 498 -242l-99 -64q-66 91 -172 145t-227 54q-160 0 -289.5 -75t-204.5 -212.5t-75 -312.5q0 -173 75 -310.5t204.5 -213.5t289.5 -76q121 0 227 54t172 145l99 -62 q-197 -244 -498 -244z"/>
<glyph unicode="D" horiz-adv-x="1417" d="M606 0h-436v1366h436q155 0 286 -54t218.5 -147t136.5 -218t49 -265q0 -142 -49 -266.5t-136.5 -216.5t-218.5 -145.5t-286 -53.5zM606 106q132 0 240 45t179.5 123.5t110 183t38.5 224.5q0 161 -65.5 291t-196 208.5t-306.5 78.5h-319v-1154h319z"/>
<glyph unicode="E" horiz-adv-x="1155" d="M1036 0h-866v1366h866v-106h-749v-506h735v-107h-735v-541h749v-106z"/>
<glyph unicode="F" horiz-adv-x="1110" d="M287 0h-117v1366h866v-106h-749v-506h735v-107h-735v-647z"/>
<glyph unicode="G" horiz-adv-x="1456" d="M811 -27q-143 0 -270 52t-220 143.5t-147.5 225t-54.5 288.5t54.5 288t148 224.5t220 143t269.5 51.5q309 0 514 -234l-88 -63q-73 88 -185.5 139t-240.5 51q-160 0 -289.5 -75t-204.5 -212.5t-75 -312.5q0 -173 75 -311t204.5 -214.5t289.5 -76.5q124 0 228.5 49 t172.5 117v327h-516v105h633v-477q-94 -105 -228 -166.5t-290 -61.5z"/>
<glyph unicode="H" horiz-adv-x="1439" d="M1272 0h-119v649h-866v-649h-117v1366h117v-610h866v610h119v-1366z"/>
<glyph unicode="I" horiz-adv-x="456" d="M287 0h-117v1366h117v-1366z"/>
<glyph unicode="J" horiz-adv-x="962" d="M379 -25q-221 0 -350 168l71 88q114 -149 273 -149q138 0 219.5 86.5t81.5 226.5v971h119v-971q0 -204 -117 -312t-297 -108z"/>
<glyph unicode="K" horiz-adv-x="1200" d="M1151 0h-150l-563 643l-151 -166v-477h-117v1366h117v-748l659 748h150l-582 -651z"/>
<glyph unicode="L" horiz-adv-x="1032" d="M948 0h-778v1366h117v-1260h661v-106z"/>
<glyph unicode="M" horiz-adv-x="1617" d="M1448 0h-119v1206l-498 -1206h-45l-499 1206v-1206h-117v1366h174l465 -1126l463 1126h176v-1366z"/>
<glyph unicode="N" horiz-adv-x="1431" d="M1262 0h-115l-860 1174v-1174h-117v1366h119l856 -1157v1157h117v-1366z"/>
<glyph unicode="O" horiz-adv-x="1564" d="M782 -25q-147 0 -272 54.5t-210.5 149t-133 224.5t-47.5 279t47.5 279t133 224.5t210.5 149t272 54.5q195 0 347.5 -93.5t234.5 -254t82 -359.5t-82 -359.5t-234.5 -254t-347.5 -93.5zM782 82q161 0 285 78t190 214.5t66 307.5q0 264 -149 432t-392 168 q-163 0 -286.5 -77.5t-188.5 -213t-65 -309.5q0 -262 147.5 -431t392.5 -169z"/>
<glyph unicode="P" d="M287 0h-117v1366h512q127 0 222 -55.5t142.5 -145t47.5 -198.5q0 -168 -112 -284t-300 -116h-395v-567zM670 674q134 0 217.5 81.5t83.5 211.5t-83.5 211.5t-217.5 81.5h-383v-586h383z"/>
<glyph unicode="Q" horiz-adv-x="1564" d="M782 -25q-147 0 -272 54.5t-210.5 149t-133 224.5t-47.5 279t47.5 279t133 224.5t210.5 149t272 54.5q195 0 347.5 -93.5t234.5 -254t82 -359.5q0 -153 -51 -285.5t-144 -228.5l144 -150l-80 -73l-146 149q-163 -119 -387 -119zM782 82q176 0 310 94l-211 219l82 76 l211 -221q149 173 149 432q0 264 -149 432t-392 168q-163 0 -286.5 -77.5t-188.5 -213t-65 -309.5q0 -262 147.5 -431t392.5 -169z"/>
<glyph unicode="R" horiz-adv-x="1216" d="M1112 0h-141l-383 565h-301v-565h-117v1366h510q181 0 298.5 -108t117.5 -291q0 -178 -109 -283t-270 -111zM670 672q134 0 218.5 82.5t84.5 212.5q0 129 -84 211t-219 82h-383v-588h383z"/>
<glyph unicode="S" horiz-adv-x="1189" d="M594 -25q-162 0 -290 59t-210 159l76 88q75 -87 183 -143t243 -56q100 0 174 25.5t112.5 67.5t56 86.5t17.5 92.5q0 47 -13 85t-42 67t-58.5 49.5t-79 39t-85.5 29.5t-96 27q-182 50 -258 89q-166 83 -184 240q-3 21 -3 44q0 109 60.5 193t162.5 128t226 44 q294 0 463 -193l-78 -86q-142 172 -391 172q-137 0 -228.5 -71t-91.5 -181q0 -34 11 -63t26.5 -50.5t45 -41t54.5 -32t68 -27.5t71.5 -23t79.5 -21q48 -14 75 -22t72 -23.5t72 -28t64.5 -32.5t60 -40t48 -48.5t39 -59.5t23 -71t9.5 -85q0 -56 -14.5 -108t-50.5 -104 t-89.5 -90t-138.5 -61.5t-192 -23.5z"/>
<glyph unicode="T" horiz-adv-x="1155" d="M637 0h-119v1260h-446v106h1011v-106h-446v-1260z"/>
<glyph unicode="U" horiz-adv-x="1404" d="M702 -25q-258 0 -395 146t-137 403v842h119v-840q0 -209 107 -326.5t306 -117.5q200 0 307 117t107 327v840h119v-842q0 -258 -136.5 -403.5t-396.5 -145.5z"/>
<glyph unicode="V" horiz-adv-x="1325" d="M735 0h-145l-559 1366h135l496 -1235l497 1235h135z"/>
<glyph unicode="W" horiz-adv-x="1775" d="M1348 0h-131l-328 1174l-328 -1174h-131l-391 1366h131l330 -1202l336 1202h106l334 -1202l330 1202h131z"/>
<glyph unicode="X" horiz-adv-x="1320" d="M1282 0h-145l-478 616l-475 -616h-147l551 700l-520 666h149l442 -580l445 580h147l-518 -664z"/>
<glyph unicode="Y" horiz-adv-x="1265" d="M692 0h-119v584l-542 782h141l461 -672l461 672h141l-543 -782v-584z"/>
<glyph unicode="Z" horiz-adv-x="1189" d="M1087 0h-985v102l824 1158h-824v106h971v-100l-823 -1160h837v-106z"/>
<glyph unicode="[" horiz-adv-x="466" d="M432 -389h-356v1778h356v-89h-266v-1601h266v-88z"/>
<glyph unicode="\" horiz-adv-x="577" d="M485 -41l-485 1448h92l486 -1448h-93z"/>
<glyph unicode="]" horiz-adv-x="466" d="M391 -389h-356v88h266v1601h-266v89h356v-1778z"/>
<glyph unicode="^" horiz-adv-x="876" d="M838 682h-99l-301 600l-301 -600h-98l356 684h86z"/>
<glyph unicode="_" horiz-adv-x="1155" d="M1161 -170h-1167v88h1167v-88z"/>
<glyph unicode="`" horiz-adv-x="442" d="M442 1139h-90l-352 295h127z"/>
<glyph unicode="a" horiz-adv-x="1067" d="M901 0h-106v117q-130 -142 -336 -142q-65 0 -126 22t-110.5 62.5t-79.5 104.5t-30 141q0 103 51.5 179.5t128.5 112.5t166 36q210 0 336 -141v200q0 107 -76 167.5t-191 60.5q-93 0 -167.5 -35t-141.5 -111l-59 74q78 85 169 125.5t212 40.5q160 0 260 -80t100 -238v-696 zM496 59q91 0 169 35t130 101v217q-52 67 -130 102t-169 35q-121 0 -196 -69.5t-75 -176.5q0 -106 75 -175t196 -69z"/>
<glyph unicode="b" d="M272 248q45 -73 136 -124.5t190 -51.5q162 0 254 118.5t92 303.5q0 186 -92.5 305t-253.5 119q-99 0 -190 -53.5t-136 -127.5v-489zM272 0h-106v1366h106v-537q61 86 151 135.5t193 49.5q198 0 320.5 -143t122.5 -377q0 -236 -122.5 -377.5t-320.5 -141.5 q-106 0 -197.5 51.5t-146.5 131.5v-158z"/>
<glyph unicode="c" horiz-adv-x="1011" d="M590 -25q-142 0 -252.5 70t-169.5 188.5t-59 262.5q0 221 133.5 369.5t347.5 148.5q121 0 202.5 -43t147.5 -125l-74 -66q-101 138 -270 138q-170 0 -271.5 -119.5t-101.5 -302.5t102 -303.5t271 -120.5q168 0 270 139l74 -66q-65 -83 -146.5 -126.5t-203.5 -43.5z"/>
<glyph unicode="d" d="M1004 0h-109v158q-55 -80 -146.5 -131.5t-197.5 -51.5q-198 0 -320 141.5t-122 377.5q0 234 122.5 377t319.5 143q104 0 193.5 -49t150.5 -136v537h109v-1366zM569 72q101 0 191 51t135 125v489q-45 76 -135.5 128.5t-190.5 52.5q-160 0 -253 -119.5t-93 -304.5 t93 -303.5t253 -118.5z"/>
<glyph unicode="e" horiz-adv-x="1161" d="M604 -25q-217 0 -356 146t-139 375q0 142 61.5 260.5t171.5 188t244 69.5q146 0 253.5 -72.5t160.5 -190t53 -262.5v-28h-828q8 -167 113 -280t274 -113q196 0 324 137l55 -70q-154 -160 -387 -160zM944 545q-1 66 -23 130.5t-64 120.5t-113 91t-160 35q-84 0 -153 -34.5 t-111.5 -90t-67 -120.5t-27.5 -132h719z"/>
<glyph unicode="f" horiz-adv-x="542" d="M307 0h-106v895h-164v94h164v90q0 145 72 226t196 81q82 0 133 -30l-33 -84q-39 22 -90 22q-84 0 -128 -55.5t-44 -159.5v-90h201v-94h-201v-895z"/>
<glyph unicode="g" horiz-adv-x="1167" d="M557 -401q-130 0 -217 31.5t-172 117.5l61 82q64 -76 140 -107.5t188 -31.5q147 0 242.5 78.5t95.5 238.5v156q-56 -80 -147.5 -132t-196.5 -52q-198 0 -320 140t-122 376q0 234 122.5 376t319.5 142q104 0 193.5 -49t150.5 -136v160h109v-979q0 -89 -23.5 -159 t-64 -116.5t-98 -77.5t-122 -44.5t-139.5 -13.5zM569 76q99 0 190 52.5t136 127.5v481q-45 75 -136 128t-190 53q-160 0 -253 -118.5t-93 -303.5t92.5 -302.5t253.5 -117.5z"/>
<glyph unicode="h" horiz-adv-x="1105" d="M940 0h-106v674q0 135 -62 189.5t-178 54.5q-92 0 -182.5 -50t-139.5 -120v-748h-106v1366h106v-526q59 70 157.5 122t199.5 52q154 0 232.5 -77t78.5 -241v-696z"/>
<glyph unicode="i" horiz-adv-x="438" d="M219 1145q-33 0 -57.5 24.5t-24.5 57.5t24.5 56.5t57.5 23.5q34 0 58 -23t24 -57t-24 -58t-58 -24zM272 0h-106v989h106v-989z"/>
<glyph unicode="j" horiz-adv-x="438" d="M219 1145q-33 0 -57.5 24.5t-24.5 57.5t24.5 56.5t57.5 23.5q34 0 58 -23t24 -57t-24 -58t-58 -24zM10 -401q-59 0 -112 16l20 92q44 -14 84 -14q76 0 120 43.5t44 136.5v1116h106v-1116q0 -135 -68.5 -204.5t-193.5 -69.5z"/>
<glyph unicode="k" horiz-adv-x="1034" d="M995 0h-143l-395 471l-185 -174v-297h-106v1366h106v-942l584 565h141l-460 -446z"/>
<glyph unicode="l" horiz-adv-x="438" d="M272 0h-106v1366h106v-1366z"/>
<glyph unicode="m" horiz-adv-x="1615" d="M1450 0h-107v692q0 226 -198 226q-78 0 -159.5 -49.5t-123.5 -118.5v-750h-108v692q0 226 -199 226q-76 0 -156.5 -50t-126.5 -120v-748h-106v989h106v-149q38 58 130.5 116t189.5 58q108 0 173.5 -53.5t86.5 -133.5q44 74 136.5 130.5t191.5 56.5q270 0 270 -301v-713z "/>
<glyph unicode="n" horiz-adv-x="1105" d="M940 0h-106v670q0 135 -62 191.5t-178 56.5q-92 0 -182.5 -50t-139.5 -120v-748h-106v989h106v-149q59 70 157.5 122t199.5 52q311 0 311 -322v-692z"/>
<glyph unicode="o" d="M584 -25q-141 0 -250.5 70t-167 188t-57.5 263t57.5 262t167 186.5t250.5 69.5q143 0 252.5 -69.5t167 -186.5t57.5 -262t-57.5 -263t-167 -188t-252.5 -70zM584 72q112 0 196 60.5t125 155.5t41 208q0 112 -41 206.5t-125 155t-196 60.5q-110 0 -194 -60.5t-125.5 -155 t-41.5 -206.5t41.5 -207.5t125.5 -156t194 -60.5z"/>
<glyph unicode="p" horiz-adv-x="1161" d="M616 -25q-103 0 -193 49.5t-151 135.5v-537h-106v1366h106v-155q55 79 146.5 129.5t197.5 50.5q199 0 321 -141t122 -377q0 -235 -122 -378t-321 -143zM598 72q161 0 253.5 119t92.5 305q0 185 -92 303.5t-254 118.5q-99 0 -190 -51.5t-136 -125.5v-489q45 -74 136 -127 t190 -53z"/>
<glyph unicode="q" horiz-adv-x="1161" d="M563 72q99 0 190 53t136 127v489q-45 74 -136 125.5t-190 51.5q-162 0 -254 -118.5t-92 -303.5q0 -186 92.5 -305t253.5 -119zM543 -25q-197 0 -319 143t-122 378q0 236 121.5 377t319.5 141q108 0 199 -50.5t147 -129.5v155h106v-1366h-106v537q-61 -86 -151.5 -135.5 t-194.5 -49.5z"/>
<glyph unicode="r" horiz-adv-x="649" d="M272 0h-106v989h106v-170q145 191 334 191v-117q-18 4 -53 4q-74 0 -160.5 -55t-120.5 -121v-721z"/>
<glyph unicode="s" horiz-adv-x="940" d="M461 -25q-241 0 -381 156l63 80q50 -63 135 -104t185 -41q122 0 193 56t71 144q0 30 -9.5 55t-32 44t-42.5 32t-59 26.5t-62.5 20.5t-70.5 19q-41 10 -56.5 14t-53.5 15t-55 18t-48 21t-46 27t-35.5 32.5t-30 40.5t-17 49t-7.5 59q0 118 95.5 196.5t257.5 78.5 q223 0 354 -146l-59 -75q-44 60 -121.5 95.5t-173.5 35.5q-113 0 -180.5 -51.5t-67.5 -129.5q0 -32 15.5 -57t32.5 -40.5t59 -31.5t63.5 -22.5t78.5 -20.5q3 -1 5 -1.5t5 -1t5 -1.5q39 -10 58 -15t55.5 -16t56 -19.5t50 -23t47 -29t37 -36t31 -44.5t18 -53.5t7.5 -64.5 q0 -127 -96 -209t-274 -82z"/>
<glyph unicode="t" horiz-adv-x="563" d="M381 -25q-97 0 -146 56t-49 159v705h-163v94h163v271h109v-271h201v-94h-201v-688q0 -62 25.5 -98.5t76.5 -36.5q68 0 111 47l41 -82q-65 -62 -168 -62z"/>
<glyph unicode="u" horiz-adv-x="1105" d="M940 0h-106v145q-67 -73 -161.5 -121.5t-195.5 -48.5q-155 0 -233 77t-78 241v696h106v-672q0 -136 61.5 -190.5t178.5 -54.5q92 0 181 47.5t141 116.5v753h106v-989z"/>
<glyph unicode="v" horiz-adv-x="985" d="M553 0h-121l-418 989h119l361 -864l356 864h121z"/>
<glyph unicode="w" horiz-adv-x="1472" d="M1116 0h-102l-277 846l-278 -846h-103l-321 989h115l262 -839l278 839h92l279 -839l262 839h115z"/>
<glyph unicode="x" horiz-adv-x="980" d="M946 0h-127l-327 436l-330 -436h-127l391 508l-369 481h127l308 -407l305 407h127l-369 -481z"/>
<glyph unicode="y" horiz-adv-x="985" d="M100 -387l19 98q37 -16 86 -16q52 0 86.5 26.5t62.5 94.5l78 176l-418 997h119l361 -864l356 864h121l-512 -1206q-78 -184 -254 -184q-58 0 -105 14z"/>
<glyph unicode="z" horiz-adv-x="960" d="M846 0h-731v88l585 807h-585v94h723v-86l-592 -809h600v-94z"/>
<glyph unicode="{" horiz-adv-x="509" d="M475 -389h-127q-91 0 -160 70.5t-69 181.5v450q0 61 -28 103.5t-79 42.5v82q51 0 79 42t28 103v449q0 111 69 182.5t160 71.5h127v-89h-127q-57 0 -97 -46.5t-40 -118.5v-455q0 -140 -94 -180q94 -40 94 -181v-454q0 -71 40.5 -118.5t96.5 -47.5h127v-88z"/>
<glyph unicode="|" horiz-adv-x="425" d="M258 -41h-88v1448h88v-1448z"/>
<glyph unicode="}" horiz-adv-x="509" d="M35 -389v88h127q56 0 96.5 47.5t40.5 118.5v454q0 141 94 181q-94 40 -94 180v455q0 72 -40 118.5t-97 46.5h-127v89h127q91 0 160 -71.5t69 -182.5v-449q0 -61 28 -103t79 -42v-82q-51 0 -79 -42.5t-28 -103.5v-450q0 -111 -69 -181.5t-160 -70.5h-127z"/>
<glyph unicode="~" horiz-adv-x="1021" d="M879 1366l88 -10q-8 -82 -19.5 -146t-32.5 -129t-50 -107.5t-73 -69.5t-100 -27q-40 0 -73 14.5t-53.5 33.5t-40.5 55t-29 60t-25 68q-12 31 -17 44.5t-16 38.5t-20 36.5t-22.5 25.5t-30 19.5t-35.5 5.5q-79 0 -123 -103.5t-62 -300.5l-90 13q8 80 20 145t33.5 128.5 t50.5 106.5t72.5 69t98.5 26q29 0 54 -7.5t43.5 -18.5t36 -31t28 -36.5t23 -45t19 -45t17.5 -48.5q14 -37 20.5 -53t20.5 -44.5t26.5 -41t31.5 -23t42 -10.5q79 0 123 104t64 304z"/>
<glyph unicode="¡" horiz-adv-x="448" d="M156 -377l26 1010h84l29 -1010h-139zM135 920q0 36 26 62t62 26q37 0 64.5 -26.5t27.5 -61.5q0 -37 -27.5 -64t-64.5 -27q-36 0 -62 27t-26 64z"/>
<glyph unicode="¢" horiz-adv-x="1011" d="M526 -205v185q-189 23 -303 167.5t-114 348.5q0 203 114 347t303 167v147h92v-143q109 -6 184.5 -48.5t137.5 -119.5l-74 -66q-97 129 -248 138v-846q150 6 248 139l74 -66q-62 -78 -137.5 -121t-184.5 -49v-180h-92zM223 496q0 -163 81.5 -278.5t221.5 -139.5v833 q-141 -26 -222 -139.5t-81 -275.5z"/>
<glyph unicode="£" horiz-adv-x="1034" d="M37 547v86h256l-37 41q-32 35 -45.5 51t-39.5 52t-37.5 63t-21.5 68t-10 85q0 161 127.5 277t315.5 116q126 0 229.5 -59t155.5 -162l-94 -59q-30 71 -108 124.5t-175 53.5q-137 0 -231.5 -79.5t-94.5 -213.5q0 -47 10.5 -88t35 -79.5t41 -59.5t51.5 -62q30 -34 57 -69 h309v-86h-258q21 -58 21 -109q0 -95 -44 -162t-122 -124q52 18 110 18q33 0 66 -8t50.5 -15.5t51.5 -23.5q84 -43 148 -43q65 0 122 26t82 58l56 -96q-101 -97 -264 -97q-45 0 -84 9t-59.5 17.5t-51.5 25.5q-32 16 -49 23t-51 14.5t-72 7.5q-85 0 -242 -82l-45 98 q142 60 216.5 149t74.5 189q0 64 -33 125h-317z"/>
<glyph unicode="¤" horiz-adv-x="1204" d="M600 197q-182 0 -309 108l-160 -160l-70 68l162 162q-96 132 -96 307q0 179 98 307l-166 168l70 68l164 -164q123 104 307 104q183 0 309 -104l162 162l70 -68l-164 -164q98 -131 98 -309q0 -179 -98 -307l164 -162l-70 -68l-160 158q-125 -106 -311 -106zM600 297 q114 0 198 55t124.5 141t40.5 189q0 102 -40.5 187.5t-125 140.5t-197.5 55q-111 0 -195 -55t-125.5 -141t-41.5 -187q0 -102 41.5 -188.5t125.5 -141.5t195 -55z"/>
<glyph unicode="¥" horiz-adv-x="1265" d="M692 0h-119v258h-528v84h528v242h-528v86h469l-483 696h141l461 -672l461 672h141l-483 -696h471v-86h-531v-242h531v-84h-531v-258z"/>
<glyph unicode="¦" horiz-adv-x="425" d="M258 -41h-88v647h88v-647zM258 760h-88v647h88v-647z"/>
<glyph unicode="§" horiz-adv-x="944" d="M831 637q0 -180 -196 -262q96 -36 146 -94.5t50 -153.5q0 -137 -101.5 -215t-268.5 -78q-136 0 -223 41.5t-158 116.5l63 74q51 -64 131 -106t187 -42q117 0 191.5 55.5t74.5 149.5q0 31 -10 57t-32 45t-44 33.5t-60 27t-65 20t-72 18.5q-151 41 -209 72 q-133 70 -133 206q0 104 70 170.5t182 93.5q-123 37 -187.5 94.5t-64.5 155.5q0 113 94 191.5t259 78.5q230 0 352 -147l-57 -68q-51 65 -129 98.5t-164 33.5q-110 0 -180 -52.5t-70 -136.5q0 -24 8.5 -44.5t19 -35t34.5 -28.5t40 -22t51.5 -19t53 -15.5t59.5 -15.5 q36 -8 57.5 -13.5t55.5 -15.5t55.5 -18.5t50 -22.5t46.5 -29t37.5 -36t30.5 -44t18 -53.5t7 -64.5zM725 629q0 38 -16 69t-38.5 51t-60 37.5t-67.5 27t-74 20.5q-145 -38 -203.5 -93t-58.5 -133q0 -36 16 -64t44 -47t65.5 -34t81 -27t90.5 -23q7 -1 11 -2t9.5 -2.5 t10.5 -2.5q94 40 142 93.5t48 129.5z"/>
<glyph unicode="¨" horiz-adv-x="536" d="M553 1231q0 -31 -22.5 -53.5t-53.5 -22.5t-53.5 22.5t-22.5 53.5t22.5 53.5t53.5 22.5t53.5 -22.5t22.5 -53.5zM135 1231q0 -31 -22.5 -53.5t-53.5 -22.5t-53 22.5t-22 53.5t22 53.5t53 22.5t53.5 -22.5t22.5 -53.5z"/>
<glyph unicode="©" horiz-adv-x="1593" d="M1503 684q0 -143 -56 -274t-150 -226t-225 -151t-275 -56q-191 0 -354 95t-258 258t-95 354q0 192 95 355t258 257.5t354 94.5q144 0 275 -56t225 -150.5t150 -225.5t56 -275zM1446 684q0 176 -87 325.5t-236.5 236.5t-325.5 87q-131 0 -251.5 -51.5t-207.5 -138.5 t-139 -207t-52 -252q0 -175 87.5 -324.5t237.5 -237t325 -87.5q176 0 325.5 87.5t236.5 237t87 324.5zM1051 426l45 -45q-116 -135 -297 -135q-178 0 -302 127.5t-124 314.5q0 186 124 311t302 125q183 0 297 -133l-47 -45q-39 53 -108 85t-142 32q-146 0 -252.5 -106 t-106.5 -271q0 -162 107 -270.5t252 -108.5q74 0 143 32.5t109 86.5z"/>
<glyph unicode="ª" horiz-adv-x="768" d="M635 668h-86v75q-86 -92 -225 -92q-92 0 -161 58.5t-69 156.5q0 99 68.5 155t161.5 56q138 0 225 -90v125q0 67 -51 105t-123 38q-128 0 -205 -98l-45 57q104 113 260 113q111 0 180.5 -53t69.5 -162v-444zM356 713q58 0 109.5 22.5t83.5 63.5v133q-32 40 -83.5 62 t-109.5 22q-76 0 -125 -42.5t-49 -107.5q0 -67 48.5 -110t125.5 -43z"/>
<glyph unicode="«" horiz-adv-x="823" d="M762 129h-117l-328 369l328 362h117l-328 -362zM506 129h-117l-328 369l328 362h117l-328 -362z"/>
<glyph unicode="¬" horiz-adv-x="1021" d="M956 928v-486h-88v400h-809v86h897z"/>
<glyph unicode="­" horiz-adv-x="614" d="M553 446h-492v99h492v-99z"/>
<glyph unicode="®" horiz-adv-x="1011" d="M940 952q0 -180 -126.5 -307t-307.5 -127q-180 0 -307 127t-127 307q0 181 127 307.5t307 126.5q119 0 219 -57.5t157.5 -157.5t57.5 -219zM885 952q0 158 -111 268.5t-268 110.5t-268 -110.5t-111 -268.5q0 -156 111.5 -267.5t267.5 -111.5t267.5 111.5t111.5 267.5z M705 702h-78l-129 197h-95v-197h-61v498h203q65 0 109 -42t44 -109q0 -72 -46 -110t-81 -38zM635 1049q0 40 -28 67t-62 27h-142v-185h142q34 0 62 27t28 64z"/>
<glyph unicode="¯" horiz-adv-x="743" d="M743 1182h-743v75h743v-75z"/>
<glyph unicode="°" horiz-adv-x="577" d="M526 1147q0 -98 -69.5 -167t-169.5 -69q-98 0 -167 69t-69 167q0 99 69 169t167 70q99 0 169 -70t70 -169zM446 1147q0 66 -47 113t-112 47q-64 0 -110 -47t-46 -113q0 -65 45.5 -110.5t110.5 -45.5t112 46t47 110z"/>
<glyph unicode="±" horiz-adv-x="1015" d="M956 662h-401v-447h-92v447h-404v83h404v435h92v-435h401v-83zM956 0h-897v84h897v-84z"/>
<glyph unicode="²" horiz-adv-x="786" d="M682 862h-576v72q250 179 366 296.5t116 223.5q0 82 -56 122t-135 40q-75 0 -136 -30t-95 -77l-55 58q47 61 123.5 94t164.5 33q71 0 132 -23t104 -78t43 -135q0 -64 -32 -129.5t-96.5 -132t-134.5 -124.5t-173 -132h440v-78z"/>
<glyph unicode="³" horiz-adv-x="786" d="M684 1083q0 -104 -79.5 -169.5t-215.5 -65.5q-101 0 -178.5 37t-116.5 96l53 57q39 -52 102 -82t138 -30q96 0 150.5 42t54.5 117q0 83 -62.5 121.5t-162.5 38.5q-66 0 -78 -2v80q14 -2 78 -2q95 0 154 36t59 111q0 69 -56.5 108.5t-140.5 39.5q-134 0 -227 -103l-52 56 q47 56 120 90.5t165 34.5q122 0 201.5 -58.5t79.5 -158.5q0 -85 -57 -133.5t-126 -57.5q31 -2 63.5 -15.5t63 -37t50.5 -63t20 -87.5z"/>
<glyph unicode="´" horiz-adv-x="442" d="M442 1434l-352 -295h-90l315 295h127z"/>
<glyph unicode="µ" horiz-adv-x="1134" d="M272 90v-467h-106v1366h106v-672q0 -249 242 -249q90 0 179 49t141 119v753h106v-786q0 -61 25.5 -96t74.5 -35q25 0 41 4l9 -94q-28 -7 -64 -7q-166 0 -190 177q-61 -77 -149.5 -127t-180.5 -50q-172 0 -234 115z"/>
<glyph unicode="¶" horiz-adv-x="919" d="M754 -205h-78v1495h-191v-1495h-77v867q-146 0 -249.5 103t-103.5 249t103.5 249t249.5 103h346v-1571z"/>
<glyph unicode="·" horiz-adv-x="448" d="M315 502q0 -37 -27.5 -63.5t-64.5 -26.5t-63.5 26.5t-26.5 63.5q0 35 26.5 61.5t63.5 26.5t64.5 -26.5t27.5 -61.5z"/>
<glyph unicode="¸" horiz-adv-x="405" d="M199 -387q-60 0 -114.5 16.5t-84.5 42.5l33 66q71 -57 164 -57q56 0 94.5 24.5t38.5 67.5q0 80 -84 80q-52 0 -82 -35l-58 32l64 173h78l-53 -140q31 25 75 25q60 0 98 -37t38 -98q0 -71 -59.5 -115.5t-147.5 -44.5z"/>
<glyph unicode="¹" horiz-adv-x="438" d="M315 862h-94v699l-131 -142l-55 60l198 202h82v-819z"/>
<glyph unicode="º" horiz-adv-x="829" d="M414 651q-143 0 -233.5 97.5t-90.5 240.5q0 144 90 241t234 97q146 0 235.5 -97t89.5 -241q0 -143 -89.5 -240.5t-235.5 -97.5zM414 727q109 0 172 75t63 187q0 111 -63 185.5t-172 74.5q-107 0 -169.5 -74.5t-62.5 -185.5t62.5 -186.5t169.5 -75.5z"/>
<glyph unicode="»" horiz-adv-x="823" d="M506 498l-328 -369h-117l328 369l-328 362h117zM762 498l-328 -369h-117l328 369l-328 362h117z"/>
<glyph unicode="¼" horiz-adv-x="1519" d="M315 547h-94v698l-131 -141l-55 59l198 203h82v-819zM1436 219h-123v-219h-90v219h-402v72l367 528h125v-524h123v-76zM1223 295v440l-308 -440h308zM1163 1366l-874 -1366h-92l872 1366h94z"/>
<glyph unicode="½" horiz-adv-x="1599" d="M315 547h-94v698l-131 -141l-55 59l198 203h82v-819zM1495 0h-575v72q123 88 202.5 151.5t147.5 130t99.5 124.5t31.5 114q0 82 -56 122t-135 40q-75 0 -136 -30t-95 -77l-55 58q46 60 123 93t165 33q52 0 100 -13.5t89 -40.5t65.5 -74t24.5 -107q0 -64 -32 -129.5 t-96.5 -132t-134.5 -124.5t-173 -132h440v-78zM1163 1366l-874 -1366h-92l872 1366h94z"/>
<glyph unicode="¾" horiz-adv-x="1759" d="M1675 219h-123v-219h-90v219h-401v72l366 528h125v-524h123v-76zM1462 295v440l-307 -440h307zM1403 1366l-875 -1366h-92l873 1366h94zM684 768q0 -105 -79.5 -170.5t-215.5 -65.5q-101 0 -178.5 37.5t-116.5 96.5l53 57q39 -52 102 -82.5t138 -30.5q95 0 150 42.5 t55 117.5q0 83 -62.5 121.5t-162.5 38.5q-66 0 -78 -2v80q14 -2 78 -2q95 0 154 36t59 111q0 69 -56.5 108t-140.5 39q-135 0 -227 -102l-52 55q47 56 120 90.5t165 34.5q122 0 201.5 -58.5t79.5 -158.5q0 -85 -57 -133t-126 -57q31 -2 63.5 -15.5t63 -37t50.5 -63t20 -87.5 z"/>
<glyph unicode="¿" horiz-adv-x="804" d="M512 623q86 -69 86 -162q0 -29 -7 -55.5t-15 -46.5t-28.5 -43.5t-31.5 -36t-40.5 -35.5t-40 -30.5t-44.5 -31.5q-50 -35 -74 -53.5t-57.5 -52.5t-48 -70.5t-14.5 -81.5q0 -94 73 -157.5t203 -63.5q124 0 207.5 47t150.5 137l74 -75q-157 -215 -440 -215q-179 0 -285 91 t-106 224q0 50 15 94.5t34.5 75t57 65t61.5 52.5t69 49q43 30 57 40t45.5 37t43.5 44t23.5 44.5t11.5 55.5q0 25 -16.5 53t-45.5 49zM494 1008q37 0 64.5 -26.5t27.5 -63.5q0 -35 -27.5 -62t-64.5 -27t-64 27t-27 62q0 37 27 63.5t64 26.5z"/>
<glyph unicode="À" horiz-adv-x="1325" d="M1294 0h-135l-135 336h-723l-135 -336h-135l559 1366h145zM985 442l-323 799l-322 -799h645zM774 1481h-90l-352 295h127z"/>
<glyph unicode="Á" horiz-adv-x="1325" d="M1294 0h-135l-135 336h-723l-135 -336h-135l559 1366h145zM985 442l-323 799l-322 -799h645zM995 1776l-352 -295h-90l315 295h127z"/>
<glyph unicode="Â" horiz-adv-x="1325" d="M922 1481h-82l-176 231l-175 -231h-79l198 295h111zM1294 0h-135l-135 336h-723l-135 -336h-135l559 1366h145zM985 442l-323 799l-322 -799h645z"/>
<glyph unicode="Ã" horiz-adv-x="1325" d="M1294 0h-135l-135 336h-723l-135 -336h-135l559 1366h145zM985 442l-323 799l-322 -799h645zM788 1477q-25 0 -46.5 8t-34.5 16t-29.5 29t-22.5 30t-22 35q-13 23 -21 35.5t-21.5 28t-28 22.5t-32.5 7q-49 0 -79.5 -50t-30.5 -149h-72q0 120 50.5 197t140.5 77 q29 0 52.5 -9t43 -30t29.5 -35t28 -44q16 -26 22.5 -35.5t20.5 -26.5t28 -23t32 -6q48 0 78 49.5t30 147.5h74q0 -120 -50 -197t-139 -77z"/>
<glyph unicode="Ä" horiz-adv-x="1325" d="M948 1573q0 -31 -22.5 -53.5t-53.5 -22.5t-53 22.5t-22 53.5t22 53.5t53 22.5t53.5 -22.5t22.5 -53.5zM530 1573q0 -31 -22 -53.5t-53 -22.5t-53.5 22.5t-22.5 53.5t22.5 53.5t53.5 22.5t53 -22.5t22 -53.5zM1294 0h-135l-135 336h-723l-135 -336h-135l559 1366h145z M985 442l-323 799l-322 -799h645z"/>
<glyph unicode="Å" horiz-adv-x="1325" d="M1294 0h-135l-135 336h-723l-135 -336h-135l559 1366h145zM985 442l-323 799l-322 -799h645zM666 1415q-82 0 -139.5 57.5t-57.5 139.5q0 80 58 138t139 58q79 0 135.5 -58t56.5 -138q0 -82 -56 -139.5t-136 -57.5zM666 1481q54 0 91.5 38.5t37.5 92.5t-37.5 92.5 t-91.5 38.5t-92.5 -38.5t-38.5 -92.5t38.5 -92.5t92.5 -38.5z"/>
<glyph unicode="Æ" horiz-adv-x="1923" d="M1800 0h-866v336h-561l-209 -336h-135l862 1366h909v-106h-747v-506h733v-107h-733v-541h747v-106zM934 442v799l-502 -799h502z"/>
<glyph unicode="Ç" horiz-adv-x="1376" d="M799 -379q-60 0 -114.5 17t-84.5 43l33 65q71 -57 164 -57q56 0 94.5 24.5t38.5 67.5q0 80 -84 80q-52 0 -82 -35l-57 33l43 118q-133 11 -249.5 67t-200.5 147t-132.5 218t-48.5 273q0 154 54 287t147 224.5t220 143.5t271 52q303 0 498 -242l-99 -64q-66 91 -172 145 t-227 54q-160 0 -289.5 -75t-204.5 -212.5t-75 -312.5q0 -173 75 -310.5t204.5 -213.5t289.5 -76q121 0 227 54t172 145l99 -62q-193 -238 -484 -244l-30 -84q31 25 75 25q60 0 98 -37t38 -98q0 -71 -59.5 -115.5t-147.5 -44.5z"/>
<glyph unicode="È" horiz-adv-x="1155" d="M1036 0h-866v1366h866v-106h-749v-506h735v-107h-735v-541h749v-106zM715 1481h-90l-353 295h127z"/>
<glyph unicode="É" horiz-adv-x="1155" d="M934 1776l-352 -295h-90l315 295h127zM1036 0h-866v1366h866v-106h-749v-506h735v-107h-735v-541h749v-106z"/>
<glyph unicode="Ê" horiz-adv-x="1155" d="M856 1481h-82l-176 231l-174 -231h-80l199 295h110zM1036 0h-866v1366h866v-106h-749v-506h735v-107h-735v-541h749v-106z"/>
<glyph unicode="Ë" horiz-adv-x="1155" d="M885 1573q0 -31 -22.5 -53.5t-53.5 -22.5t-53.5 22.5t-22.5 53.5t22.5 53.5t53.5 22.5t53.5 -22.5t22.5 -53.5zM467 1573q0 -31 -22.5 -53.5t-53.5 -22.5t-53.5 22.5t-22.5 53.5t22.5 53.5t53.5 22.5t53.5 -22.5t22.5 -53.5zM1036 0h-866v1366h866v-106h-749v-506h735 v-107h-735v-541h749v-106z"/>
<glyph unicode="Ì" horiz-adv-x="456" d="M287 0h-117v1366h117v-1366zM340 1481h-90l-352 295h127z"/>
<glyph unicode="Í" horiz-adv-x="456" d="M287 0h-117v1366h117v-1366zM561 1776l-352 -295h-90l315 295h127z"/>
<glyph unicode="Î" horiz-adv-x="456" d="M487 1481h-81l-177 231l-174 -231h-80l199 295h111zM287 0h-117v1366h117v-1366z"/>
<glyph unicode="Ï" horiz-adv-x="456" d="M514 1573q0 -31 -22.5 -53.5t-53.5 -22.5t-53.5 22.5t-22.5 53.5t22.5 53.5t53.5 22.5t53.5 -22.5t22.5 -53.5zM96 1573q0 -31 -22.5 -53.5t-53.5 -22.5t-53 22.5t-22 53.5t22 53.5t53 22.5t53.5 -22.5t22.5 -53.5zM287 0h-117v1366h117v-1366z"/>
<glyph unicode="Ð" horiz-adv-x="1476" d="M668 0h-437v633h-208v90h208v643h437q155 0 286 -54t218.5 -147t136.5 -218t49 -265q0 -142 -49 -266.5t-136.5 -216.5t-218.5 -145.5t-286 -53.5zM668 106q175 0 305.5 78t196 207.5t65.5 290.5t-65 291t-195.5 208.5t-306.5 78.5h-320v-537h367v-90h-367v-527h320z"/>
<glyph unicode="Ñ" horiz-adv-x="1431" d="M840 1477q-25 0 -46.5 8t-35 16.5t-30 28.5t-23 30t-21.5 35q-14 24 -21.5 35.5t-20.5 27.5t-27.5 23t-32.5 7q-49 0 -80 -50t-31 -149h-72q0 120 50.5 197t140.5 77q29 0 52.5 -9t43 -30t29.5 -35t28 -44q16 -26 22.5 -35.5t20.5 -26.5t28 -23t32 -6q48 0 78 49.5 t30 147.5h74q0 -120 -49.5 -197t-138.5 -77zM1262 0h-115l-860 1174v-1174h-117v1366h119l856 -1157v1157h117v-1366z"/>
<glyph unicode="Ò" horiz-adv-x="1564" d="M895 1481h-90l-352 295h127zM782 -25q-147 0 -272 54.5t-210.5 149t-133 224.5t-47.5 279t47.5 279t133 224.5t210.5 149t272 54.5q195 0 347.5 -93.5t234.5 -254t82 -359.5t-82 -359.5t-234.5 -254t-347.5 -93.5zM782 82q161 0 285 78t190 214.5t66 307.5 q0 264 -149 432t-392 168q-163 0 -286.5 -77.5t-188.5 -213t-65 -309.5q0 -262 147.5 -431t392.5 -169z"/>
<glyph unicode="Ó" horiz-adv-x="1564" d="M1114 1776l-352 -295h-90l315 295h127zM782 -25q-147 0 -272 54.5t-210.5 149t-133 224.5t-47.5 279t47.5 279t133 224.5t210.5 149t272 54.5q195 0 347.5 -93.5t234.5 -254t82 -359.5t-82 -359.5t-234.5 -254t-347.5 -93.5zM782 82q161 0 285 78t190 214.5t66 307.5 q0 264 -149 432t-392 168q-163 0 -286.5 -77.5t-188.5 -213t-65 -309.5q0 -262 147.5 -431t392.5 -169z"/>
<glyph unicode="Ô" horiz-adv-x="1564" d="M1042 1481h-81l-177 231l-174 -231h-80l199 295h111zM782 -25q-147 0 -272 54.5t-210.5 149t-133 224.5t-47.5 279t47.5 279t133 224.5t210.5 149t272 54.5q195 0 347.5 -93.5t234.5 -254t82 -359.5t-82 -359.5t-234.5 -254t-347.5 -93.5zM782 82q161 0 285 78t190 214.5 t66 307.5q0 264 -149 432t-392 168q-163 0 -286.5 -77.5t-188.5 -213t-65 -309.5q0 -262 147.5 -431t392.5 -169z"/>
<glyph unicode="Õ" horiz-adv-x="1564" d="M782 -25q-147 0 -272 54.5t-210.5 149t-133 224.5t-47.5 279t47.5 279t133 224.5t210.5 149t272 54.5q195 0 347.5 -93.5t234.5 -254t82 -359.5t-82 -359.5t-234.5 -254t-347.5 -93.5zM782 82q161 0 285 78t190 214.5t66 307.5q0 264 -149 432t-392 168 q-163 0 -286.5 -77.5t-188.5 -213t-65 -309.5q0 -262 147.5 -431t392.5 -169zM909 1477q-25 0 -46.5 8t-34.5 16t-29.5 29t-22.5 30t-22 35q-13 23 -21 35.5t-21.5 28t-28 22.5t-32.5 7q-49 0 -79.5 -50t-30.5 -149h-72q0 120 50.5 197t139.5 77q29 0 52.5 -9t43 -30 t30 -35.5t28.5 -43.5q36 -59 55 -74q21 -17 47 -17q49 0 79 49.5t30 147.5h74q0 -120 -50 -197t-139 -77z"/>
<glyph unicode="Ö" horiz-adv-x="1564" d="M1065 1573q0 -31 -22.5 -53.5t-53.5 -22.5t-53.5 22.5t-22.5 53.5t22.5 53.5t53.5 22.5t53.5 -22.5t22.5 -53.5zM647 1573q0 -31 -22.5 -53.5t-53.5 -22.5t-53 22.5t-22 53.5t22 53.5t53 22.5t53.5 -22.5t22.5 -53.5zM782 -25q-147 0 -272 54.5t-210.5 149t-133 224.5 t-47.5 279t47.5 279t133 224.5t210.5 149t272 54.5q195 0 347.5 -93.5t234.5 -254t82 -359.5t-82 -359.5t-234.5 -254t-347.5 -93.5zM782 82q161 0 285 78t190 214.5t66 307.5q0 264 -149 432t-392 168q-163 0 -286.5 -77.5t-188.5 -213t-65 -309.5q0 -262 147.5 -431 t392.5 -169z"/>
<glyph unicode="×" horiz-adv-x="1015" d="M819 313l-311 312l-309 -312l-62 60l312 311l-312 311l62 60l309 -312l311 312l60 -60l-312 -311l312 -311z"/>
<glyph unicode="Ø" horiz-adv-x="1564" d="M782 -25q-188 0 -344 91l-41 -66h-104l74 115q-119 95 -183.5 242.5t-64.5 324.5q0 149 47.5 279t133 224.5t210.5 149t272 54.5q181 0 336 -89l41 66h107l-74 -115q121 -96 187.5 -244t66.5 -325q0 -199 -82 -359.5t-234.5 -254t-347.5 -93.5zM782 82q161 0 285 78 t190 214.5t66 307.5q0 149 -49.5 271t-140.5 202l-635 -997q124 -76 284 -76zM242 682q0 -147 48 -268t138 -203l631 997q-123 74 -277 74q-163 0 -286.5 -77.5t-188.5 -213t-65 -309.5z"/>
<glyph unicode="Ù" horiz-adv-x="1404" d="M702 -25q-258 0 -395 146t-137 403v842h119v-840q0 -209 107 -326.5t306 -117.5q200 0 307 117t107 327v840h119v-842q0 -258 -136.5 -403.5t-396.5 -145.5zM815 1481h-90l-352 295h127z"/>
<glyph unicode="Ú" horiz-adv-x="1404" d="M1034 1776l-352 -295h-90l315 295h127zM702 -25q-258 0 -395 146t-137 403v842h119v-840q0 -209 107 -326.5t306 -117.5q200 0 307 117t107 327v840h119v-842q0 -258 -136.5 -403.5t-396.5 -145.5z"/>
<glyph unicode="Û" horiz-adv-x="1404" d="M965 1481h-82l-176 231l-175 -231h-79l198 295h111zM702 -25q-258 0 -395 146t-137 403v842h119v-840q0 -209 107 -326.5t306 -117.5q200 0 307 117t107 327v840h119v-842q0 -258 -136.5 -403.5t-396.5 -145.5z"/>
<glyph unicode="Ü" horiz-adv-x="1404" d="M989 1573q0 -31 -22.5 -53.5t-53.5 -22.5t-53 22.5t-22 53.5t22 53.5t53 22.5t53.5 -22.5t22.5 -53.5zM571 1573q0 -31 -22 -53.5t-53 -22.5t-53.5 22.5t-22.5 53.5t22.5 53.5t53.5 22.5t53 -22.5t22 -53.5zM702 -25q-258 0 -395 146t-137 403v842h119v-840 q0 -209 107 -326.5t306 -117.5q200 0 307 117t107 327v840h119v-842q0 -258 -136.5 -403.5t-396.5 -145.5z"/>
<glyph unicode="Ý" horiz-adv-x="1265" d="M692 0h-119v584l-542 782h141l461 -672l461 672h141l-543 -782v-584zM965 1776l-353 -295h-90l316 295h127z"/>
<glyph unicode="Þ" d="M287 0h-117v1366h117v-254h395q189 0 300.5 -116t111.5 -285q0 -109 -48 -198.5t-143 -144.5t-221 -55h-395v-313zM670 420q134 0 217.5 81.5t83.5 209.5q0 129 -83.5 212t-217.5 83h-383v-586h383z"/>
<glyph unicode="ß" horiz-adv-x="1183" d="M1141 268q0 -58 -22 -109.5t-65.5 -93t-116 -66t-165.5 -24.5q-134 0 -216.5 41t-154.5 117l64 78q48 -64 127 -104.5t180 -40.5q126 0 195 58.5t69 141.5q0 30 -9.5 55t-31 44t-42.5 33t-58 27t-62.5 20.5t-70.5 19.5q-53 13 -82.5 22t-75.5 25.5t-73 35.5t-54.5 46.5 t-40 64.5t-12.5 82q0 35 11.5 67.5t27 54.5t43.5 46.5t47.5 38.5t52.5 35q67 40 102 74t35 80q0 70 -68.5 111.5t-152.5 41.5q-105 0 -177.5 -68t-72.5 -180v-1042h-106v1042q0 148 98 246t258 98q136 0 233 -66t97 -175q0 -42 -13.5 -76t-42.5 -62t-52 -44t-64 -41 q-37 -23 -57 -37t-46 -38t-37.5 -50.5t-11.5 -57.5t13 -55.5t35.5 -41t54.5 -30t66.5 -23.5t75.5 -21q9 -2 13 -3q46 -11 72.5 -18t69.5 -21t68.5 -28t56.5 -37t47.5 -49t28.5 -63t12 -81z"/>
<glyph unicode="à" horiz-adv-x="1067" d="M901 0h-106v117q-130 -142 -336 -142q-65 0 -126 22t-110.5 62.5t-79.5 104.5t-30 141q0 103 51.5 179.5t128.5 112.5t166 36q210 0 336 -141v200q0 107 -76 167.5t-191 60.5q-93 0 -167.5 -35t-141.5 -111l-59 74q78 85 169 125.5t212 40.5q160 0 260 -80t100 -238v-696 zM496 59q91 0 169 35t130 101v217q-52 67 -130 102t-169 35q-121 0 -196 -69.5t-75 -176.5q0 -106 75 -175t196 -69zM651 1139h-90l-352 295h127z"/>
<glyph unicode="á" horiz-adv-x="1067" d="M901 0h-106v117q-130 -142 -336 -142q-65 0 -126 22t-110.5 62.5t-79.5 104.5t-30 141q0 103 51.5 179.5t128.5 112.5t166 36q210 0 336 -141v200q0 107 -76 167.5t-191 60.5q-93 0 -167.5 -35t-141.5 -111l-59 74q78 85 169 125.5t212 40.5q160 0 260 -80t100 -238v-696 zM496 59q91 0 169 35t130 101v217q-52 67 -130 102t-169 35q-121 0 -196 -69.5t-75 -176.5q0 -106 75 -175t196 -69zM872 1434l-352 -295h-90l315 295h127z"/>
<glyph unicode="â" horiz-adv-x="1067" d="M901 0h-106v117q-130 -142 -336 -142q-65 0 -126 22t-110.5 62.5t-79.5 104.5t-30 141q0 103 51.5 179.5t128.5 112.5t166 36q210 0 336 -141v200q0 107 -76 167.5t-191 60.5q-93 0 -167.5 -35t-141.5 -111l-59 74q78 85 169 125.5t212 40.5q160 0 260 -80t100 -238v-696 zM496 59q91 0 169 35t130 101v217q-52 67 -130 102t-169 35q-121 0 -196 -69.5t-75 -176.5q0 -106 75 -175t196 -69zM799 1139h-82l-176 231l-174 -231h-80l198 295h111z"/>
<glyph unicode="ã" horiz-adv-x="1067" d="M901 0h-106v117q-130 -142 -336 -142q-65 0 -126 22t-110.5 62.5t-79.5 104.5t-30 141q0 103 51.5 179.5t128.5 112.5t166 36q210 0 336 -141v200q0 107 -76 167.5t-191 60.5q-93 0 -167.5 -35t-141.5 -111l-59 74q78 85 169 125.5t212 40.5q160 0 260 -80t100 -238v-696 zM496 59q91 0 169 35t130 101v217q-52 67 -130 102t-169 35q-121 0 -196 -69.5t-75 -176.5q0 -106 75 -175t196 -69zM666 1135q-25 0 -46.5 8t-35 16.5t-30 28.5t-23 30t-21.5 35q-14 24 -21.5 35.5t-20.5 27.5t-27.5 23t-32.5 7q-49 0 -80 -50t-31 -149h-72q0 120 50.5 197 t140.5 77q29 0 52.5 -9t43 -30t29.5 -35t28 -44q16 -26 22.5 -35.5t20.5 -26.5t28 -23t32 -6q48 0 78 49.5t30 147.5h74q0 -120 -49.5 -197t-138.5 -77z"/>
<glyph unicode="ä" horiz-adv-x="1067" d="M901 0h-106v117q-130 -142 -336 -142q-65 0 -126 22t-110.5 62.5t-79.5 104.5t-30 141q0 103 51.5 179.5t128.5 112.5t166 36q210 0 336 -141v200q0 107 -76 167.5t-191 60.5q-93 0 -167.5 -35t-141.5 -111l-59 74q78 85 169 125.5t212 40.5q160 0 260 -80t100 -238v-696 zM496 59q91 0 169 35t130 101v217q-52 67 -130 102t-169 35q-121 0 -196 -69.5t-75 -176.5q0 -106 75 -175t196 -69zM821 1231q0 -31 -22.5 -53.5t-53.5 -22.5t-53 22.5t-22 53.5t22 53.5t53 22.5t53.5 -22.5t22.5 -53.5zM403 1231q0 -31 -22 -53.5t-53 -22.5t-53.5 22.5 t-22.5 53.5t22.5 53.5t53.5 22.5t53 -22.5t22 -53.5z"/>
<glyph unicode="å" horiz-adv-x="1067" d="M901 0h-106v117q-130 -142 -336 -142q-65 0 -126 22t-110.5 62.5t-79.5 104.5t-30 141q0 103 51.5 179.5t128.5 112.5t166 36q210 0 336 -141v200q0 107 -76 167.5t-191 60.5q-93 0 -167.5 -35t-141.5 -111l-59 74q78 85 169 125.5t212 40.5q160 0 260 -80t100 -238v-696 zM496 59q91 0 169 35t130 101v217q-52 67 -130 102t-169 35q-121 0 -196 -69.5t-75 -176.5q0 -106 75 -175t196 -69zM539 1122q-82 0 -139.5 57.5t-57.5 139.5q0 80 58 138.5t139 58.5q79 0 135.5 -58.5t56.5 -138.5q0 -82 -56 -139.5t-136 -57.5zM539 1188q54 0 91.5 38.5 t37.5 92.5t-37.5 92.5t-91.5 38.5t-92.5 -38.5t-38.5 -92.5t38.5 -92.5t92.5 -38.5z"/>
<glyph unicode="æ" horiz-adv-x="1837" d="M1729 461h-777q8 -168 104.5 -280.5t252.5 -112.5q182 0 303 137l55 -70q-147 -160 -358 -160q-137 0 -242 67.5t-160 197.5q-48 -121 -155 -193t-244 -72q-111 0 -199.5 37.5t-142 113.5t-53.5 179t52 179t133.5 112.5t180.5 36.5q227 0 367 -137v196q0 108 -79 168 t-210 60q-198 0 -338 -146l-59 74q153 166 413 166q60 0 115 -12.5t105 -39t84.5 -74t44.5 -110.5q53 105 148.5 170.5t219.5 65.5q139 0 240 -72.5t150 -190t49 -262.5v-28zM952 545h668q0 52 -12 104t-38 101.5t-64 87.5t-95 61t-125 23q-77 0 -141.5 -34.5t-104.5 -90 t-63 -121t-25 -131.5zM846 377v33q-56 67 -142 103t-184 36q-132 0 -213.5 -67.5t-81.5 -172.5q0 -107 81 -174t214 -67q143 0 234.5 92.5t91.5 216.5z"/>
<glyph unicode="ç" horiz-adv-x="1011" d="M592 -383q-60 0 -114.5 16.5t-84.5 42.5l33 66q71 -57 164 -57q56 0 94.5 24.5t38.5 67.5q0 80 -84 80q-52 0 -82 -35l-57 33l45 122q-196 17 -316 163.5t-120 355.5q0 221 133.5 369.5t347.5 148.5q121 0 202.5 -43t147.5 -125l-74 -66q-101 138 -270 138 q-170 0 -271.5 -119.5t-101.5 -302.5t102 -303.5t271 -120.5q168 0 270 139l74 -66q-62 -78 -136 -120t-183 -48l-33 -90q31 25 76 25q60 0 97.5 -37t37.5 -98q0 -71 -59.5 -115.5t-147.5 -44.5z"/>
<glyph unicode="è" horiz-adv-x="1161" d="M604 -25q-217 0 -356 146t-139 375q0 142 61.5 260.5t171.5 188t244 69.5q146 0 253.5 -72.5t160.5 -190t53 -262.5v-28h-828q8 -167 113 -280t274 -113q196 0 324 137l55 -70q-154 -160 -387 -160zM944 545q-1 66 -23 130.5t-64 120.5t-113 91t-160 35q-84 0 -153 -34.5 t-111.5 -90t-67 -120.5t-27.5 -132h719zM698 1139h-90l-352 295h127z"/>
<glyph unicode="é" horiz-adv-x="1161" d="M918 1434l-353 -295h-90l316 295h127zM604 -25q-217 0 -356 146t-139 375q0 142 61.5 260.5t171.5 188t244 69.5q146 0 253.5 -72.5t160.5 -190t53 -262.5v-28h-828q8 -167 113 -280t274 -113q196 0 324 137l55 -70q-154 -160 -387 -160zM944 545q-1 66 -23 130.5 t-64 120.5t-113 91t-160 35q-84 0 -153 -34.5t-111.5 -90t-67 -120.5t-27.5 -132h719z"/>
<glyph unicode="ê" horiz-adv-x="1161" d="M846 1139h-82l-176 231l-174 -231h-80l198 295h111zM604 -25q-217 0 -356 146t-139 375q0 142 61.5 260.5t171.5 188t244 69.5q146 0 253.5 -72.5t160.5 -190t53 -262.5v-28h-828q8 -167 113 -280t274 -113q196 0 324 137l55 -70q-154 -160 -387 -160zM944 545 q-1 66 -23 130.5t-64 120.5t-113 91t-160 35q-84 0 -153 -34.5t-111.5 -90t-67 -120.5t-27.5 -132h719z"/>
<glyph unicode="ë" horiz-adv-x="1161" d="M872 1231q0 -31 -22 -53.5t-53 -22.5t-53.5 22.5t-22.5 53.5t22.5 53.5t53.5 22.5t53 -22.5t22 -53.5zM455 1231q0 -31 -22.5 -53.5t-53.5 -22.5t-53.5 22.5t-22.5 53.5t22.5 53.5t53.5 22.5t53.5 -22.5t22.5 -53.5zM604 -25q-217 0 -356 146t-139 375q0 142 61.5 260.5 t171.5 188t244 69.5q146 0 253.5 -72.5t160.5 -190t53 -262.5v-28h-828q8 -167 113 -280t274 -113q196 0 324 137l55 -70q-154 -160 -387 -160zM944 545q-1 66 -23 130.5t-64 120.5t-113 91t-160 35q-84 0 -153 -34.5t-111.5 -90t-67 -120.5t-27.5 -132h719z"/>
<glyph unicode="ì" horiz-adv-x="438" d="M272 0h-106v989h106v-989zM330 1139h-90l-353 295h127z"/>
<glyph unicode="í" horiz-adv-x="438" d="M551 1434l-352 -295h-90l315 295h127zM272 0h-106v989h106v-989z"/>
<glyph unicode="î" horiz-adv-x="438" d="M475 1139h-82l-176 231l-174 -231h-80l199 295h110zM272 0h-106v989h106v-989z"/>
<glyph unicode="ï" horiz-adv-x="438" d="M504 1231q0 -31 -22.5 -53.5t-53.5 -22.5t-53.5 22.5t-22.5 53.5t22.5 53.5t53.5 22.5t53.5 -22.5t22.5 -53.5zM86 1231q0 -31 -22.5 -53.5t-53.5 -22.5t-53.5 22.5t-22.5 53.5t22.5 53.5t53.5 22.5t53.5 -22.5t22.5 -53.5zM272 0h-106v989h106v-989z"/>
<glyph unicode="ð" d="M266 1044l-28 70l247 109q-5 3 -166 108l62 90q123 -74 221 -147l223 98l29 -67l-186 -82q393 -331 393 -723q0 -149 -57.5 -267.5t-167 -188t-252.5 -69.5q-212 0 -343.5 146t-131.5 366q0 219 127 364.5t329 145.5q197 0 322 -178q-120 197 -330 355zM584 72 q112 0 196 59t125 152t41 204q0 110 -41 202.5t-125 152t-196 59.5q-110 0 -194 -59t-125.5 -152.5t-41.5 -202.5q0 -110 41.5 -203.5t125.5 -152.5t194 -59z"/>
<glyph unicode="ñ" horiz-adv-x="1105" d="M940 0h-106v670q0 135 -62 191.5t-178 56.5q-92 0 -182.5 -50t-139.5 -120v-748h-106v989h106v-149q59 70 157.5 122t199.5 52q311 0 311 -322v-692zM680 1135q-25 0 -46.5 8t-35 16.5t-30 28.5t-23 30t-21.5 35q-14 24 -21.5 35.5t-20.5 27.5t-27.5 23t-32.5 7 q-49 0 -80 -50t-31 -149h-71q0 120 50.5 197t139.5 77q29 0 52.5 -9t43 -30t30 -35.5t28.5 -43.5q36 -59 55 -74q21 -17 47 -17q49 0 79 49.5t30 147.5h73q0 -120 -49.5 -197t-138.5 -77z"/>
<glyph unicode="ò" d="M584 -25q-141 0 -250.5 70t-167 188t-57.5 263t57.5 262t167 186.5t250.5 69.5q143 0 252.5 -69.5t167 -186.5t57.5 -262t-57.5 -263t-167 -188t-252.5 -70zM584 72q112 0 196 60.5t125 155.5t41 208q0 112 -41 206.5t-125 155t-196 60.5q-110 0 -194 -60.5t-125.5 -155 t-41.5 -206.5t41.5 -207.5t125.5 -156t194 -60.5zM696 1139h-90l-352 295h127z"/>
<glyph unicode="ó" d="M918 1434l-353 -295h-90l316 295h127zM584 -25q-141 0 -250.5 70t-167 188t-57.5 263t57.5 262t167 186.5t250.5 69.5q143 0 252.5 -69.5t167 -186.5t57.5 -262t-57.5 -263t-167 -188t-252.5 -70zM584 72q112 0 196 60.5t125 155.5t41 208q0 112 -41 206.5t-125 155 t-196 60.5q-110 0 -194 -60.5t-125.5 -155t-41.5 -206.5t41.5 -207.5t125.5 -156t194 -60.5z"/>
<glyph unicode="ô" d="M844 1139h-82l-176 231l-174 -231h-80l198 295h111zM584 -25q-141 0 -250.5 70t-167 188t-57.5 263t57.5 262t167 186.5t250.5 69.5q143 0 252.5 -69.5t167 -186.5t57.5 -262t-57.5 -263t-167 -188t-252.5 -70zM584 72q112 0 196 60.5t125 155.5t41 208q0 112 -41 206.5 t-125 155t-196 60.5q-110 0 -194 -60.5t-125.5 -155t-41.5 -206.5t41.5 -207.5t125.5 -156t194 -60.5z"/>
<glyph unicode="õ" d="M584 -25q-141 0 -250.5 70t-167 188t-57.5 263t57.5 262t167 186.5t250.5 69.5q143 0 252.5 -69.5t167 -186.5t57.5 -262t-57.5 -263t-167 -188t-252.5 -70zM584 72q112 0 196 60.5t125 155.5t41 208q0 112 -41 206.5t-125 155t-196 60.5q-110 0 -194 -60.5t-125.5 -155 t-41.5 -206.5t41.5 -207.5t125.5 -156t194 -60.5zM711 1135q-25 0 -46.5 8t-35 16.5t-30 28.5t-23 30t-21.5 35q-14 24 -21.5 35.5t-20.5 27.5t-27.5 23t-32.5 7q-49 0 -80 -50t-31 -149h-72q0 120 50.5 197t140.5 77q29 0 52.5 -9t43 -30t29.5 -35t28 -44 q16 -26 22.5 -35.5t20.5 -26.5t28 -23t32 -6q48 0 78 49.5t30 147.5h74q0 -120 -49.5 -197t-138.5 -77z"/>
<glyph unicode="ö" d="M870 1231q0 -31 -22 -53.5t-53 -22.5t-53.5 22.5t-22.5 53.5t22.5 53.5t53.5 22.5t53 -22.5t22 -53.5zM453 1231q0 -31 -22.5 -53.5t-53.5 -22.5t-53.5 22.5t-22.5 53.5t22.5 53.5t53.5 22.5t53.5 -22.5t22.5 -53.5zM584 -25q-141 0 -250.5 70t-167 188t-57.5 263 t57.5 262t167 186.5t250.5 69.5q143 0 252.5 -69.5t167 -186.5t57.5 -262t-57.5 -263t-167 -188t-252.5 -70zM584 72q112 0 196 60.5t125 155.5t41 208q0 112 -41 206.5t-125 155t-196 60.5q-110 0 -194 -60.5t-125.5 -155t-41.5 -206.5t41.5 -207.5t125.5 -156t194 -60.5z "/>
<glyph unicode="÷" horiz-adv-x="1046" d="M604 1087q0 -32 -24 -56.5t-56 -24.5q-34 0 -58 24t-24 57q0 34 24 57t58 23q33 0 56.5 -23.5t23.5 -56.5zM987 647h-928v86h928v-86zM604 283q0 -32 -24 -56t-56 -24q-34 0 -58 24t-24 56q0 34 24 58t58 24q32 0 56 -24t24 -58z"/>
<glyph unicode="ø" d="M242 0h-90l92 121q-135 148 -135 375q0 145 57.5 262t167 186.5t250.5 69.5q158 0 276 -88l49 63h90l-84 -108q70 -71 108 -170.5t38 -214.5q0 -145 -57.5 -263t-167 -188t-252.5 -70q-165 0 -289 97zM584 72q112 0 196 60.5t125 155.5t41 208q0 173 -98 297l-488 -637 q90 -84 224 -84zM223 496q0 -167 88 -287l486 635q-90 74 -213 74q-110 0 -194 -60.5t-125.5 -155t-41.5 -206.5z"/>
<glyph unicode="ù" horiz-adv-x="1105" d="M940 0h-106v145q-67 -73 -161.5 -121.5t-195.5 -48.5q-155 0 -233 77t-78 241v696h106v-672q0 -136 61.5 -190.5t178.5 -54.5q92 0 181 47.5t141 116.5v753h106v-989zM664 1139h-91l-352 295h127z"/>
<glyph unicode="ú" horiz-adv-x="1105" d="M885 1434l-353 -295h-90l316 295h127zM940 0h-106v145q-67 -73 -161.5 -121.5t-195.5 -48.5q-155 0 -233 77t-78 241v696h106v-672q0 -136 61.5 -190.5t178.5 -54.5q92 0 181 47.5t141 116.5v753h106v-989z"/>
<glyph unicode="û" horiz-adv-x="1105" d="M809 1139h-82l-176 231l-174 -231h-80l199 295h110zM940 0h-106v145q-67 -73 -161.5 -121.5t-195.5 -48.5q-155 0 -233 77t-78 241v696h106v-672q0 -136 61.5 -190.5t178.5 -54.5q92 0 181 47.5t141 116.5v753h106v-989z"/>
<glyph unicode="ü" horiz-adv-x="1105" d="M842 1231q0 -31 -22.5 -53.5t-53.5 -22.5t-53.5 22.5t-22.5 53.5t22.5 53.5t53.5 22.5t53.5 -22.5t22.5 -53.5zM424 1231q0 -31 -22.5 -53.5t-53.5 -22.5t-53.5 22.5t-22.5 53.5t22.5 53.5t53.5 22.5t53.5 -22.5t22.5 -53.5zM940 0h-106v145q-67 -73 -161.5 -121.5 t-195.5 -48.5q-155 0 -233 77t-78 241v696h106v-672q0 -136 61.5 -190.5t178.5 -54.5q92 0 181 47.5t141 116.5v753h106v-989z"/>
<glyph unicode="ý" horiz-adv-x="985" d="M100 -387l19 98q37 -16 86 -16q52 0 86.5 26.5t62.5 94.5l78 176l-418 997h119l361 -864l356 864h121l-512 -1206q-78 -184 -254 -184q-58 0 -105 14zM825 1434l-352 -295h-90l315 295h127z"/>
<glyph unicode="þ" horiz-adv-x="1161" d="M616 -25q-103 0 -193 49.5t-151 135.5v-537h-106v1743h106v-532q55 79 146.5 129.5t197.5 50.5q199 0 321 -141t122 -377q0 -235 -122 -378t-321 -143zM598 72q161 0 253.5 119t92.5 305q0 185 -92 303.5t-254 118.5q-99 0 -190 -51.5t-136 -125.5v-489q45 -74 136 -127 t190 -53z"/>
<glyph unicode="ÿ" horiz-adv-x="985" d="M100 -387l19 98q37 -16 86 -16q52 0 86.5 26.5t62.5 94.5l78 176l-418 997h119l361 -864l356 864h121l-512 -1206q-78 -184 -254 -184q-58 0 -105 14zM778 1231q0 -31 -22.5 -53.5t-53.5 -22.5t-53 22.5t-22 53.5t22 53.5t53 22.5t53.5 -22.5t22.5 -53.5zM360 1231 q0 -31 -22 -53.5t-53 -22.5t-53.5 22.5t-22.5 53.5t22.5 53.5t53.5 22.5t53 -22.5t22 -53.5z"/>
<glyph unicode="Œ" horiz-adv-x="2283" d="M2161 0h-867v285q-76 -149 -216 -229.5t-302 -80.5q-194 0 -345 93.5t-231.5 254t-80.5 359.5q0 149 47.5 278.5t132 223.5t208 148t269.5 54q162 0 302 -79t216 -226v285h867v-106h-748v-506h733v-107h-733v-541h748v-106zM1294 453v460q-64 181 -198.5 274t-311.5 93 q-247 0 -394.5 -166.5t-147.5 -431.5q0 -173 65 -308.5t189 -213.5t288 -78q176 0 310.5 95t199.5 276z"/>
<glyph unicode="œ" horiz-adv-x="1996" d="M1888 461h-825q6 -167 110.5 -280t274.5 -113q195 0 326 137l55 -70q-157 -160 -387 -160q-78 0 -146 21t-114.5 52.5t-84 74.5t-58.5 82t-35 80q-15 -40 -34.5 -76.5t-56 -81t-80 -76.5t-109 -54t-140.5 -22q-141 0 -250.5 70t-167 188t-57.5 263t57.5 262t167 186.5 t250.5 69.5q75 0 141 -22t110.5 -54.5t80.5 -76t55.5 -81t32.5 -75.5q17 48 47.5 97t80 99t125 81.5t164.5 31.5q146 0 253.5 -72.5t160.5 -190t53 -262.5v-28zM1061 545h719q-1 66 -23 130.5t-64.5 120.5t-113.5 91t-160 35q-83 0 -151.5 -34.5t-111.5 -90t-67.5 -120.5 t-27.5 -132zM946 496q0 113 -41.5 208t-125.5 154.5t-195 59.5q-110 0 -193.5 -59.5t-125.5 -154.5t-42 -208q0 -114 42 -210t125.5 -156t193.5 -60q166 0 264 124.5t98 301.5z"/>
<glyph unicode="Ÿ" horiz-adv-x="1265" d="M924 1573q0 -31 -22.5 -53.5t-53.5 -22.5t-53.5 22.5t-22.5 53.5t22.5 53.5t53.5 22.5t53.5 -22.5t22.5 -53.5zM506 1573q0 -31 -22.5 -53.5t-53.5 -22.5t-53.5 22.5t-22.5 53.5t22.5 53.5t53.5 22.5t53.5 -22.5t22.5 -53.5zM692 0h-119v584l-542 782h141l461 -672 l461 672h141l-543 -782v-584z"/>
<glyph unicode="ˆ" horiz-adv-x="512" d="M512 1139h-82l-176 231l-174 -231h-80l199 295h110z"/>
<glyph unicode="˜" horiz-adv-x="628" d="M440 1135q-25 0 -46.5 8t-34.5 16t-29.5 29t-22.5 30t-22 35q-13 23 -21 35.5t-21.5 28t-28 22.5t-32.5 7q-49 0 -79.5 -50t-30.5 -149h-72q0 120 50.5 197t139.5 77q29 0 52.5 -9t43 -30t30 -35.5t28.5 -43.5q36 -59 55 -74q21 -17 47 -17q49 0 79 49.5t30 147.5h74 q0 -120 -50 -197t-139 -77z"/>
<glyph unicode=" " horiz-adv-x="904"/>
<glyph unicode=" " horiz-adv-x="1808"/>
<glyph unicode=" " horiz-adv-x="904"/>
<glyph unicode=" " horiz-adv-x="1808"/>
<glyph unicode=" " horiz-adv-x="602"/>
<glyph unicode=" " horiz-adv-x="452"/>
<glyph unicode=" " horiz-adv-x="301"/>
<glyph unicode=" " horiz-adv-x="301"/>
<glyph unicode=" " horiz-adv-x="226"/>
<glyph unicode=" " horiz-adv-x="361"/>
<glyph unicode=" " horiz-adv-x="100"/>
<glyph unicode="‐" horiz-adv-x="614" d="M553 446h-492v99h492v-99z"/>
<glyph unicode="‑" horiz-adv-x="614" d="M553 446h-492v99h492v-99z"/>
<glyph unicode="‒" horiz-adv-x="614" d="M553 446h-492v99h492v-99z"/>
<glyph unicode="–" horiz-adv-x="1214" d="M1153 446h-1092v99h1092v-99z"/>
<glyph unicode="—" horiz-adv-x="1705" d="M1645 446h-1584v99h1584v-99z"/>
<glyph unicode="‘" horiz-adv-x="448" d="M104 1108q0 83 42.5 158t105.5 120l59 -49q-49 -34 -82 -87t-36 -103q4 4 20 4q36 0 60 -25t24 -61t-26 -62t-62 -26q-44 0 -74.5 35.5t-30.5 95.5z"/>
<glyph unicode="’" horiz-adv-x="448" d="M326 1255q0 -83 -42.5 -159t-105.5 -119l-59 49q49 34 82.5 87.5t36.5 103.5q-5 -5 -21 -5q-37 0 -60.5 24.5t-23.5 61.5q0 36 26 62t62 26q44 0 74.5 -35.5t30.5 -95.5z"/>
<glyph unicode="‚" horiz-adv-x="448" d="M326 29q0 -83 -42.5 -159.5t-105.5 -121.5l-59 51q49 33 82.5 87t36.5 102q-15 -2 -21 -2q-37 0 -60.5 24.5t-23.5 61.5q0 36 26 62t62 26q44 0 74.5 -35.5t30.5 -95.5z"/>
<glyph unicode="“" horiz-adv-x="737" d="M123 1108q0 83 41 158t104 120l62 -49q-50 -34 -84 -87.5t-37 -102.5q4 4 22 4q35 0 58.5 -25t23.5 -61t-25 -62t-63 -26q-43 0 -72.5 35t-29.5 96zM414 1108q0 83 41 158t104 120l62 -49q-50 -34 -84 -87.5t-37 -102.5q4 4 22 4q35 0 58.5 -25t23.5 -61t-25 -62t-63 -26 q-43 0 -72.5 35t-29.5 96z"/>
<glyph unicode="”" horiz-adv-x="737" d="M614 1255q0 -83 -41.5 -159t-103.5 -119l-61 49q49 34 83 87.5t37 103.5q-5 -5 -22 -5q-35 0 -58.5 24.5t-23.5 61.5q0 36 25 62t63 26q43 0 72.5 -35t29.5 -96zM326 1255q0 -83 -42.5 -159t-105.5 -119l-59 49q49 34 82.5 87.5t36.5 103.5q-5 -5 -21 -5 q-37 0 -60.5 24.5t-23.5 61.5q0 36 26 62t62 26q44 0 74.5 -35.5t30.5 -95.5z"/>
<glyph unicode="„" horiz-adv-x="739" d="M326 29q0 -83 -42.5 -159.5t-105.5 -121.5l-59 51q49 33 82.5 87t36.5 102q-15 -2 -21 -2q-37 0 -60.5 24.5t-23.5 61.5q0 36 26 62t62 26q44 0 74.5 -35.5t30.5 -95.5zM614 29q0 -83 -41 -159.5t-104 -121.5l-61 51q49 33 83 87t37 102l-8 -1q-9 -1 -14 -1 q-35 0 -58.5 24.5t-23.5 61.5q0 36 25 62t63 26q43 0 72.5 -35t29.5 -96z"/>
<glyph unicode="•" horiz-adv-x="733" d="M580 496q0 -86 -61.5 -147.5t-149.5 -61.5t-149.5 61.5t-61.5 147.5q0 88 61.5 149.5t149.5 61.5t149.5 -61.5t61.5 -149.5z"/>
<glyph unicode="…" horiz-adv-x="1345" d="M313 72q0 -37 -26.5 -63.5t-63.5 -26.5t-63.5 26.5t-26.5 63.5q0 35 26.5 61.5t63.5 26.5t63.5 -26.5t26.5 -61.5zM762 72q0 -37 -26.5 -63.5t-63.5 -26.5t-63.5 26.5t-26.5 63.5q0 35 26.5 61.5t63.5 26.5t63.5 -26.5t26.5 -61.5zM1210 72q0 -37 -26.5 -63.5 t-63.5 -26.5t-62.5 26.5t-25.5 63.5q0 36 26 62t62 26q37 0 63.5 -26.5t26.5 -61.5z"/>
<glyph unicode=" " horiz-adv-x="361"/>
<glyph unicode="‹" horiz-adv-x="567" d="M506 129h-117l-328 369l328 362h117l-328 -362z"/>
<glyph unicode="›" horiz-adv-x="567" d="M506 498l-328 -369h-117l328 369l-328 362h117z"/>
<glyph unicode=" " horiz-adv-x="452"/>
<glyph unicode="€" horiz-adv-x="1413" d="M854 -25q-247 0 -431 142t-241 379h-110v84h96q-6 50 -6 102q0 54 6 106h-96v84h112q57 234 241 375.5t429 141.5q303 0 498 -242l-99 -64q-66 91 -172 145t-227 54q-195 0 -343 -111.5t-202 -298.5h668v-84h-686q-6 -52 -6 -106q0 -52 6 -102h686v-84h-668 q54 -188 201.5 -301t343.5 -113q121 0 227 54t172 145l99 -62q-197 -244 -498 -244z"/>
<glyph unicode="™" horiz-adv-x="929" d="M858 915h-57v373l-154 -373h-16l-154 373v-373h-57v451h88l131 -328l131 328h88v-451zM346 1313h-127v-398h-57v398h-127v53h311v-53z"/>
<glyph unicode="◼" horiz-adv-x="993" d="M0 993h993v-993h-993v993z"/>
</font>
</defs>
</svg>
